[PROBLEMA] Foobar non mi legge mp3 creato dallo smartphone

fabio_1

Utente Attivo
155
6
Hardware Utente
CPU
i5-6500
Scheda Madre
ASRock H170 Pro4S
Hard Disk
Samsung 850EVO 250GB
RAM
Corsair DD4 2133 C13 2x4GB
Scheda Video
Sapphire R9 380 4GB NITRO
Scheda Audio
Integrata + DAC Audioengine D1
Monitor
LG 24MB56HQ-B IPS
Alimentatore
XFX 550 Black
Case
Corsair Spec-03
Periferiche
Casse Edifier R1800TIII
Sistema Operativo
Windows 7
#1
Come da titolo sto usando una app 'registratore vocale' per registrare usando lo smartphone. Creo i file in formato mp3 ma quando vado a trasferirli sul PC e riascoltarli con foobar non funzionano ed appare il messaggio 'Unable to open item for playback (Unsupported format or corrupted file):'

lo stesso file viene però aperto da windows media player. A cosa può essere dovuto? come risolvo?
 
Ultima modifica:

filoippo97

Super Moderatore
Staff Forum
12,078
6,297
Hardware Utente
CPU
Intel Core I7 4930K @4.5GHz
Dissipatore
EKWB supremacy nickel
Scheda Madre
ASUS Rampage IV Black Edition
Hard Disk
OCZ vertex 4 512GB | WD RE4 Enterprise Storage 2TB
RAM
16GB Corsair Dominator Platinum 2133MHz cas9 OC @2400MHz 9-11-11-31-2 1.65V
Scheda Video
2-way SLI GTX 780Ti DirectCUII OC
Scheda Audio
TEAC UD-503 MUSES + HiFiMan HE-560 V2 + Anaview AMS1000 + Tannoy Revolution XT8F
Monitor
ASUS VG278HR 144Hz 3D 1920x1080p
Alimentatore
Corsair AX1200i Fully sleeved red
Case
Corsair Graphite 760T Arctic White
Periferiche
Corsair K95 | Steelseries Rival
Sistema Operativo
windows 10 Pro
#2
Come da titolo sto usando una app 'registratore vocale' per registrare usando lo smartphone. Creo i file in formato mp3 ma quando vado a trasferirli sul PC e riascoltarli con foobar non funzionano ed appare il messaggio 'Unable to open item for playback (Unsupported format or corrupted file):'

lo stesso file viene però aperto da windows media player. A cosa può essere dovuto? come risolvo?
sapresti darmi qualche informazione in piú circa il file MP3 che produce?
Prova con mediainfo, e copia/incolla quel che riporta qui sotto spoiler
https://mediaarea.net/it/MediaInfo
 

fabio_1

Utente Attivo
155
6
Hardware Utente
CPU
i5-6500
Scheda Madre
ASRock H170 Pro4S
Hard Disk
Samsung 850EVO 250GB
RAM
Corsair DD4 2133 C13 2x4GB
Scheda Video
Sapphire R9 380 4GB NITRO
Scheda Audio
Integrata + DAC Audioengine D1
Monitor
LG 24MB56HQ-B IPS
Alimentatore
XFX 550 Black
Case
Corsair Spec-03
Periferiche
Casse Edifier R1800TIII
Sistema Operativo
Windows 7
#3
Ecco il risultato di mediainfo

General
Complete name : C:\Users\fabio\Desktop\Recording_30.mp3
Format : MPEG-4
Format profile : Base Media / Version 2
Codec ID : mp42 (isom/mp42)
File size : 86.9 MiB
Duration : 2 h 6 min
Overall bit rate mode : Constant
Overall bit rate : 96.0 kb/s
Encoded date : UTC 2018-02-12 17:23:17
Tagged date : UTC 2018-02-12 17:23:17
com.android.version : 6.0.1
FileExtension_Invalid : mov mp4 m4v m4a m4b m4p 3ga 3gpa 3gpp 3gp 3gpp2 3g2 k3g jpm jpx mqv ismv isma ismt f4a f4b f4v

Audio
ID : 1
Format : AAC
Format/Info : Advanced Audio Codec
Format profile : LC
Codec ID : mp4a-40-2
Duration : 2 h 6 min
Bit rate mode : Constant
Bit rate : 96.0 kb/s
Nominal bit rate : 128 kb/s
Channel(s) : 1 channel
Channel positions : Front: C
Sampling rate : 16.0 kHz
Frame rate : 15.625 FPS (1024 SPF)
Compression mode : Lossy
Stream size : 86.9 MiB (100%)
Title : SoundHandle
Language : English
Encoded date : UTC 2018-02-12 17:23:17
Tagged date : UTC 2018-02-12 17:23:17
 

filoippo97

Super Moderatore
Staff Forum
12,078
6,297
Hardware Utente
CPU
Intel Core I7 4930K @4.5GHz
Dissipatore
EKWB supremacy nickel
Scheda Madre
ASUS Rampage IV Black Edition
Hard Disk
OCZ vertex 4 512GB | WD RE4 Enterprise Storage 2TB
RAM
16GB Corsair Dominator Platinum 2133MHz cas9 OC @2400MHz 9-11-11-31-2 1.65V
Scheda Video
2-way SLI GTX 780Ti DirectCUII OC
Scheda Audio
TEAC UD-503 MUSES + HiFiMan HE-560 V2 + Anaview AMS1000 + Tannoy Revolution XT8F
Monitor
ASUS VG278HR 144Hz 3D 1920x1080p
Alimentatore
Corsair AX1200i Fully sleeved red
Case
Corsair Graphite 760T Arctic White
Periferiche
Corsair K95 | Steelseries Rival
Sistema Operativo
windows 10 Pro
#4
Ecco il risultato di mediainfo

General
Complete name : C:\Users\fabio\Desktop\Recording_30.mp3
Format : MPEG-4
Format profile : Base Media / Version 2
Codec ID : mp42 (isom/mp42)
File size : 86.9 MiB
Duration : 2 h 6 min
Overall bit rate mode : Constant
Overall bit rate : 96.0 kb/s
Encoded date : UTC 2018-02-12 17:23:17
Tagged date : UTC 2018-02-12 17:23:17
com.android.version : 6.0.1
FileExtension_Invalid : mov mp4 m4v m4a m4b m4p 3ga 3gpa 3gpp 3gp 3gpp2 3g2 k3g jpm jpx mqv ismv isma ismt f4a f4b f4v

Audio
ID : 1
Format : AAC
Format/Info : Advanced Audio Codec
Format profile : LC
Codec ID : mp4a-40-2
Duration : 2 h 6 min
Bit rate mode : Constant
Bit rate : 96.0 kb/s
Nominal bit rate : 128 kb/s
Channel(s) : 1 channel
Channel positions : Front: C
Sampling rate : 16.0 kHz
Frame rate : 15.625 FPS (1024 SPF)
Compression mode : Lossy
Stream size : 86.9 MiB (100%)
Title : SoundHandle
Language : English
Encoded date : UTC 2018-02-12 17:23:17
Tagged date : UTC 2018-02-12 17:23:17
é in formato MP4 e non MP3, ecco tutto :sisi:
 
Mi Piace: fabio_1

fabio_1

Utente Attivo
155
6
Hardware Utente
CPU
i5-6500
Scheda Madre
ASRock H170 Pro4S
Hard Disk
Samsung 850EVO 250GB
RAM
Corsair DD4 2133 C13 2x4GB
Scheda Video
Sapphire R9 380 4GB NITRO
Scheda Audio
Integrata + DAC Audioengine D1
Monitor
LG 24MB56HQ-B IPS
Alimentatore
XFX 550 Black
Case
Corsair Spec-03
Periferiche
Casse Edifier R1800TIII
Sistema Operativo
Windows 7
#5
Pensavo che questo topic venisse perso nella migrazione ma visto che così non è stato ne approfitto: il mio file è MP4 dici, ok, ma Foorbar non dovrebbe leggere nativamente anche tale formato?

guida foorbar di TH ha detto:
Formati audio supportati nativamente: MP1, MP2, MP3, MP4, MPC, AAC, Ogg Vorbis, FLAC / Ogg FLAC, WavPack, WAV, AIFF, AU, SND,CDDA, WMA.
comunque, come faccio a farglielo leggere? tra i componenti non ho trovato nulla che sembri utile allo scopo.

Edit: rinominando l'estensione lo legge ma di tanto in tanto (sembra random) compare (e rimane a lungo) un picco di acuti che arriva a coprire la voce e oltremodo fastidioso. In WMP questo picco non c'è.

Grazie
 
Ultima modifica:

Discussioni Simili


Entra